<?xml version="1.0" standalone="no"?>
<!DOCTYPE svg PUBLIC "-//W3C//DTD SVG 1.1//EN" "http://www.w3.org/Graphics/SVG/1.1/DTD/svg11.dtd" >
<svg xmlns="http://www.w3.org/2000/svg">
<metadata></metadata>
<defs>
<font id="rockwellregular" horiz-adv-x="598" >
<font-face units-per-em="2048" ascent="1638" descent="-410" />
<missing-glyph horiz-adv-x="512" />
<glyph horiz-adv-x="2048" />
<glyph horiz-adv-x="2048" />
<glyph unicode="&#xd;" horiz-adv-x="2048" />
<glyph unicode=" "  horiz-adv-x="512" />
<glyph unicode="&#x09;" horiz-adv-x="512" />
<glyph unicode="&#xa0;" horiz-adv-x="512" />
<glyph unicode="!" d="M176 0v246h246v-246h-246zM199 967v424h200v-424l-49 -590h-102z" />
<glyph unicode="&#x22;" horiz-adv-x="831" d="M127 1151v240h164v-240l-29 -283h-106zM541 1151v240h164v-240l-29 -283h-107z" />
<glyph unicode="#" horiz-adv-x="1368" d="M86 383v139h217l72 352h-289v140h320l81 399h148l-82 -399h397l82 399h148l-82 -399h184v-140h-217l-70 -352h287v-139h-317l-84 -399h-146l82 399h-397l-84 -399h-146l82 399h-186zM449 522h399l72 352h-400z" />
<glyph unicode="$" horiz-adv-x="1110" d="M61 420h183q9 -129 62 -194.5t163 -84.5v461q-192 38 -286.5 133t-94.5 252q0 169 100 272.5t281 120.5v84h152v-84q171 -18 261.5 -129t73.5 -311h-174q0 126 -36 190t-125 84v-444q99 -19 169 -45.5t124.5 -70t81 -108.5t26.5 -153q0 -178 -104.5 -285.5t-296.5 -127.5 v-156h-152v156q-85 5 -158 34t-130.5 81.5t-89.5 135.5t-30 189zM291 1016q0 -84 41 -133t137 -80v420q-85 -15 -131.5 -69t-46.5 -138zM621 143q215 40 215 224q0 87 -48 132t-167 70v-426z" />
<glyph unicode="%" horiz-adv-x="1984" d="M139 1049q0 166 79 264t212 98q132 0 211.5 -98.5t79.5 -263.5q0 -164 -79.5 -262.5t-211.5 -98.5q-133 0 -212 98t-79 263zM301 1049q0 -120 31.5 -178t97.5 -58q129 0 129 236q0 235 -129 235q-66 0 -97.5 -57.5t-31.5 -177.5zM369 0l1104 1391h141l-1096 -1391h-149z M1264 330q0 166 78.5 264t211.5 98q132 0 211.5 -98.5t79.5 -263.5q0 -164 -79.5 -262.5t-211.5 -98.5q-133 0 -211.5 98t-78.5 263zM1425 330q0 -120 31.5 -178t97.5 -58q129 0 129 236q0 235 -129 235q-66 0 -97.5 -57.5t-31.5 -177.5z" />
<glyph unicode="&#x26;" horiz-adv-x="1386" d="M63 446q0 276 316 418q-94 125 -94 242q0 129 98 218t240 89q140 0 235.5 -85.5t95.5 -211.5q0 -105 -67 -182t-223 -135l282 -383q80 140 109 319h284v-170h-147q-51 -187 -137 -297l73 -94h211v-174h-317l-92 123q-185 -146 -369 -146q-214 0 -356 134t-142 335z M276 457q0 -125 91 -215t217 -90q132 0 239 110l-338 473q-209 -95 -209 -278zM479 1112q0 -58 84 -182q113 50 158 91.5t45 98.5q0 60 -39 92.5t-102 32.5q-66 0 -106 -35t-40 -98z" />
<glyph unicode="'" horiz-adv-x="362" d="M100 1151v240h164v-240l-28 -283h-107z" />
<glyph unicode="(" horiz-adv-x="768" d="M166 485q0 227 69.5 412.5t189 312.5t286.5 207v-155q-90 -59 -150.5 -123t-105.5 -155t-65.5 -213t-20.5 -286t20.5 -286t65.5 -212.5t105.5 -154.5t150.5 -123v-155q-167 80 -286.5 206.5t-189 312t-69.5 412.5z" />
<glyph unicode=")" horiz-adv-x="768" d="M57 -291q90 59 150.5 123t105.5 154.5t65.5 212.5t20.5 286t-20.5 286t-65.5 213t-105.5 155t-150.5 123v155q167 -80 286.5 -207t189 -312.5t69.5 -412.5t-69.5 -412.5t-189 -312t-286.5 -206.5v155z" />
<glyph unicode="*" horiz-adv-x="1067" d="M70 1010l53 176l168 -53q68 -83 215 -136q-4 65 -22.5 133t-41.5 113v170h181v-170q-23 -45 -41.5 -113t-22.5 -133q147 53 215 136l168 53l53 -176l-161 -56q-90 21 -246 -16q110 -130 186 -158l103 -141l-150 -107l-104 142q-3 48 -30 119t-61 112q-34 -41 -60.5 -112 t-29.5 -119l-104 -142l-150 107l103 141q76 28 186 158q-156 37 -246 16z" />
<glyph unicode="+" horiz-adv-x="1366" d="M135 590v158h469v469h158v-469h469v-158h-469v-469h-158v469h-469z" />
<glyph unicode="," d="M176 0v246h246v-246q0 -138 -57 -206.5t-189 -69.5v102q67 15 95 53t28 121h-123z" />
<glyph unicode="-" horiz-adv-x="724" d="M63 395v168h601v-168h-601z" />
<glyph unicode="." d="M176 0v246h246v-246h-246z" />
<glyph unicode="/" horiz-adv-x="897" d="M10 -29l711 1420h166l-711 -1420h-166z" />
<glyph unicode="0" horiz-adv-x="1110" d="M72 696q0 339 127 528t356 189q227 0 354 -189.5t127 -527.5q0 -340 -127 -529.5t-354 -189.5q-229 0 -356 189.5t-127 529.5zM270 696q0 -276 68.5 -416.5t214.5 -140.5q138 0 211.5 130.5t73.5 426.5q0 294 -72.5 424.5t-212.5 130.5q-283 0 -283 -555z" />
<glyph unicode="1" horiz-adv-x="1110" d="M295 0v168h190v1055h-190v168h383v-1223h178v-168h-561z" />
<glyph unicode="2" horiz-adv-x="1110" d="M82 0q0 314 229 543q56 56 129 112t125.5 93.5t101 80.5t74 93t25.5 110q0 99 -61.5 159t-163.5 60q-140 0 -190 -85.5t-50 -293.5h-184q-11 137 17 243t87.5 170t139.5 96t178 32q93 0 168.5 -23.5t123.5 -61.5t80.5 -88.5t46 -101t13.5 -102.5q0 -161 -127 -288 q-48 -48 -123.5 -104t-141 -102t-129.5 -100.5t-108.5 -121.5t-58.5 -142h522l10 320h168l-12 -498h-889z" />
<glyph unicode="3" horiz-adv-x="1110" d="M66 471h182q6 -158 86 -245t221 -87q120 0 194 68t74 178q0 120 -90 188t-229 68h-88v172h84q132 0 201 50t69 161q0 103 -59.5 165t-157.5 62q-117 0 -174 -73.5t-57 -206.5h-193q-9 203 101 322.5t302 119.5q194 0 310 -94t116 -270q0 -104 -53.5 -190t-142.5 -126 q260 -81 260 -336q0 -191 -131.5 -305.5t-349.5 -114.5q-104 0 -190 29t-151.5 87.5t-101 155t-32.5 222.5z" />
<glyph unicode="4" horiz-adv-x="1110" d="M59 530l578 873h162v-862h223v-168h-223v-205h127v-168h-457v168h145v205h-464q-23 89 -91 157zM252 541h362v549h-4z" />
<glyph unicode="5" horiz-adv-x="1110" d="M72 444h180q19 -146 94.5 -225.5t196.5 -79.5q124 0 201 84t77 221q0 133 -70.5 213t-187.5 80q-165 0 -280 -166q-61 61 -146 103l60 717h741v-371h-172v192h-426l-31 -409q57 49 133 78q71 24 150 24q190 0 309 -127.5t119 -331.5q0 -98 -30 -181.5t-87.5 -148.5 t-150 -102t-209.5 -37q-214 0 -335 120t-136 347z" />
<glyph unicode="6" horiz-adv-x="1110" d="M100 688q0 342 129.5 533.5t360.5 191.5q177 0 284 -116.5t113 -315.5h-170q-17 125 -84.5 197.5t-165.5 72.5q-73 0 -129 -42.5t-88.5 -116.5t-48.5 -165t-16 -196q66 74 151.5 115t173.5 41q169 0 278 -122.5t109 -311.5q0 -210 -116.5 -343t-300.5 -133 q-226 0 -353 188.5t-127 522.5zM293 522q23 -194 90.5 -285.5t185.5 -91.5q110 0 180 82t70 211q0 120 -62.5 192t-168.5 72q-77 0 -148 -43t-147 -137z" />
<glyph unicode="7" horiz-adv-x="1110" d="M121 1024v367h868v-136q-156 -217 -267.5 -527.5t-111.5 -559.5h162v-168h-549v168h185q15 260 112.5 535t249.5 509h-477v-188h-172z" />
<glyph unicode="8" horiz-adv-x="1110" d="M68 383q0 122 63 209.5t184 134.5q-204 120 -204 322q0 164 120 264t318 100q206 0 327 -98.5t121 -265.5q0 -201 -202 -322q121 -47 183 -134.5t62 -209.5q0 -186 -129 -296t-346 -110q-128 0 -226 32.5t-156 89.5t-86.5 128.5t-28.5 155.5zM272 391q0 -114 78.5 -183 t204.5 -69t203.5 69.5t77.5 182.5q0 117 -77.5 184.5t-211.5 67.5q-123 0 -199 -69t-76 -183zM299 1028q0 -103 69 -163t187 -60t186 60.5t68 164.5t-67 160.5t-193 56.5q-117 0 -183.5 -58t-66.5 -161z" />
<glyph unicode="9" horiz-adv-x="1110" d="M94 938q0 209 117.5 342t302.5 133q226 0 351.5 -186.5t125.5 -521.5q0 -343 -129.5 -535.5t-359.5 -192.5q-177 0 -284.5 117.5t-113.5 317.5h170q17 -125 84.5 -199t165.5 -74q57 0 106 29t89.5 88.5t64 163.5t23.5 242q-66 -74 -152 -115t-174 -41q-167 0 -277 122.5 t-110 309.5zM272 952q0 -118 64 -190t168 -72q77 0 148 43t147 137q-23 192 -90.5 283.5t-186.5 91.5q-110 0 -180 -82t-70 -211z" />
<glyph unicode=":" d="M176 0v246h246v-246h-246zM176 721v246h246v-246h-246z" />
<glyph unicode=";" d="M176 0v246h246v-246q0 -138 -57 -206.5t-189 -69.5v102q67 15 95 53t28 121h-123zM176 721v246h246v-246h-246z" />
<glyph unicode="&#x3c;" horiz-adv-x="1366" d="M135 596v143l1096 461v-172l-883 -360l883 -361v-170z" />
<glyph unicode="=" horiz-adv-x="1366" d="M135 354v158h1096v-158h-1096zM135 827v158h1096v-158h-1096z" />
<glyph unicode="&#x3e;" horiz-adv-x="1366" d="M135 137v170l883 361l-883 360v170l1096 -459v-143z" />
<glyph unicode="?" horiz-adv-x="960" d="M59 967q-9 100 14 180t65.5 128.5t101 80.5t115 44.5t114.5 12.5q196 0 310 -105.5t114 -287.5q0 -72 -23.5 -138.5t-69 -121.5t-122 -86.5t-172.5 -28.5l-25 -270h-102l-25 434l15 6q87 -15 159 0.5t120 70.5t48 144q0 101 -60 161t-161 60q-117 0 -176.5 -72 t-50.5 -212h-189zM305 0v246h246v-246h-246z" />
<glyph unicode="@" horiz-adv-x="2068" d="M111 469q0 91 15.5 185.5t51 196t88.5 193.5t133.5 175.5t180 144t233.5 96t289 35.5q193 0 356 -63.5t270.5 -171t167.5 -249t60 -298.5q0 -130 -48.5 -260t-129 -230.5t-193.5 -163.5t-233 -63q-91 0 -141 41t-50 125q-68 -78 -147.5 -121t-157.5 -43 q-155 0 -259.5 128t-104.5 320q0 159 74.5 307t195.5 239t250 91q92 0 169.5 -47.5t131.5 -136.5l35 156h180l-174 -805q-7 -35 14.5 -60.5t52.5 -25.5q29 0 75 21t100.5 67.5t101.5 109t78.5 156.5t31.5 199q0 178 -92.5 322t-256 225.5t-365.5 81.5q-178 0 -333 -65.5 t-265.5 -179t-174 -274t-63.5 -344.5q0 -173 54.5 -313.5t160.5 -241.5t270.5 -156t376.5 -55q236 0 417.5 77.5t287.5 223.5h186q-143 -218 -356.5 -333t-532.5 -115q-202 0 -369 45t-285 125.5t-199 193t-119.5 247t-38.5 288.5zM680 430q0 -122 61.5 -203.5t153.5 -81.5 q90 0 174 71.5t135 189t51 243.5q0 129 -63 208t-166 79q-68 0 -127.5 -37.5t-98.5 -94.5t-67 -126.5t-40.5 -133t-12.5 -114.5z" />
<glyph unicode="A" horiz-adv-x="1429" d="M-16 0v174h168l380 1061h-163v156h710v-156h-164l375 -1061h156v-174h-545v174h172l-102 315h-500l-109 -315h170v-174h-548zM522 651h396l-185 584h-18z" />
<glyph unicode="B" horiz-adv-x="1193" d="M47 0v174h170v1043h-170v174h563q111 0 196 -30.5t133.5 -82t72.5 -114t24 -132.5q0 -101 -45 -178t-127 -117q115 -40 178.5 -129.5t63.5 -212.5q0 -53 -12 -103t-47 -104.5t-90 -95t-149 -66.5t-216 -26h-545zM426 174h164q158 0 229.5 59t71.5 177q0 227 -297 227 h-168v-463zM426 811h156q241 0 241 207q0 103 -64 151t-202 48h-131v-406z" />
<glyph unicode="C" horiz-adv-x="1556" d="M88 694q0 324 189.5 521.5t502.5 197.5q271 0 459 -149v127h180v-447h-180q-60 132 -180 208.5t-268 76.5q-207 0 -340.5 -149.5t-133.5 -379.5q0 -227 138.5 -380.5t343.5 -153.5q72 0 144.5 24.5t138 71.5t117.5 125.5t77 177.5l182 -100q-61 -227 -241.5 -357.5 t-432.5 -130.5q-203 0 -362 91t-246.5 254t-87.5 372z" />
<glyph unicode="D" horiz-adv-x="1492" d="M27 0v174h188v1043h-188v174h653q156 0 280 -39.5t203 -104t131 -154.5t73.5 -184.5t21.5 -199.5q0 -344 -179.5 -526.5t-547.5 -182.5h-635zM424 174h246q113 0 200.5 27t144.5 74t93.5 115t52 144.5t15.5 167.5q0 114 -29 206t-88.5 162t-157 108.5t-227.5 38.5h-250 v-1043z" />
<glyph unicode="E" horiz-adv-x="1280" d="M57 0v174h181v1043h-181v174h1153v-418h-172v244h-592v-414h517v-174h-517v-455h592v254h172v-428h-1153z" />
<glyph unicode="F" horiz-adv-x="1130" d="M37 0v174h176v1043h-176v174h1079v-418h-172v244h-522v-412h450v-174h-450v-457h180v-174h-565z" />
<glyph unicode="G" horiz-adv-x="1642" d="M96 700q0 101 23.5 199t78 192t134 164.5t200 114t267.5 43.5q149 0 263.5 -41.5t223.5 -134.5v154h178v-457h-178q-60 133 -188.5 214t-280.5 81q-218 0 -354.5 -148t-136.5 -383q0 -233 144.5 -384.5t367.5 -151.5q173 0 298 94t150 242h-252v174h508v-22 q0 -135 -34 -245q-38 -119 -104.5 -198t-159.5 -132.5t-194.5 -76.5t-213.5 -23q-123 0 -227 26t-178.5 70t-134 104t-96 125t-61 137.5t-34 136.5t-9.5 126z" />
<glyph unicode="H" horiz-adv-x="1449" d="M55 0v174h158v1043h-158v174h531v-174h-164v-398h608v398h-164v174h531v-174h-158v-1043h158v-174h-531v174h164v471h-608v-471h164v-174h-531z" />
<glyph unicode="I" horiz-adv-x="641" d="M63 0v174h152v1043h-152v174h512v-174h-151v-1043h151v-174h-512z" />
<glyph unicode="J" horiz-adv-x="641" d="M-72 -219q84 -19 152 -19q76 0 111.5 43.5t35.5 133.5v1278h-178v174h565v-174h-178v-1319q0 -78 -24 -139t-60 -96.5t-84 -59t-91.5 -31.5t-86.5 -8q-85 0 -162 22v195z" />
<glyph unicode="K" horiz-adv-x="1280" d="M37 0v174h174v1043h-174v174h563v-174h-180v-1043h160v-174h-543zM430 735l444 482h-159v174h545v-174h-148l-426 -482l438 -561h150v-174h-565v174h149z" />
<glyph unicode="L" horiz-adv-x="1067" d="M29 0v174h184v1043h-184v174h569v-174h-176v-1043h434v473h193v-647h-1020z" />
<glyph unicode="M" horiz-adv-x="1792" d="M49 0v174h170v1043h-170v174h479l363 -953l366 953h486v-174h-168v-1043h168v-174h-510v174h149v1045h-4l-473 -1233h-41l-469 1231h-4v-1043h150v-174h-492z" />
<glyph unicode="N" horiz-adv-x="1472" d="M8 0v174h199v1043h-199v174h475l602 -1082h5v908h-195v174h571v-174h-204v-1231h-220l-659 1188h-4v-1000h201v-174h-572z" />
<glyph unicode="O" horiz-adv-x="1642" d="M102 694q0 155 54 289t148.5 228.5t228 148t288.5 53.5q206 0 370.5 -92t256.5 -256.5t92 -370.5t-92 -370t-256.5 -255.5t-370.5 -91.5q-155 0 -289 53.5t-228.5 147.5t-148 227.5t-53.5 288.5zM332 694q0 -110 38 -209t103 -169.5t155.5 -112t192.5 -41.5 q136 0 248.5 70t177 192.5t64.5 269.5q0 148 -64.5 271t-177 193.5t-248.5 70.5t-248.5 -70.5t-176.5 -193.5t-64 -271z" />
<glyph unicode="P" horiz-adv-x="1173" d="M41 0v174h174v1043h-174v174h616q111 0 196 -28.5t134.5 -72t81 -103t42.5 -114t11 -112.5q0 -99 -33.5 -180t-82.5 -130q-69 -69 -168 -94t-258 -25h-156v-358h182v-174h-565zM424 700h174q93 0 156 20t96 58.5t46 82.5t13 102q0 122 -64.5 188t-180.5 66h-240v-517z " />
<glyph unicode="Q" horiz-adv-x="1642" d="M102 700q0 205 91.5 368t255 254t368.5 91q156 0 290.5 -53.5t229.5 -147t149 -226.5t54 -288q0 -131 -38.5 -246.5t-102.5 -197t-145.5 -142.5t-168 -91.5t-170.5 -34.5v2v-4q191 -84 301 -84q38 0 66 10l-74 -172q-36 -7 -68 -7q-26 0 -50 5q-51 10 -111.5 35 t-110 50.5t-111 45.5t-114.5 20q-86 0 -141 -49l-62 86q36 36 69 54t87 28v4q-151 44 -264 147.5t-171.5 243.5t-58.5 299zM332 698q0 -232 138 -385t347 -153t351.5 155.5t142.5 382.5t-143 379t-355 152t-346.5 -149.5t-134.5 -381.5z" />
<glyph unicode="R" horiz-adv-x="1236" d="M27 0v174h190v1043h-190v174h643q225 0 333.5 -98t108.5 -265q0 -134 -74 -223.5t-213 -124.5l246 -506h170v-174h-301l-315 651h-199v-477h180v-174h-579zM426 825h236q70 0 119.5 18t73.5 49.5t34 64t10 71.5q0 91 -58.5 140t-160.5 49h-254v-392z" />
<glyph unicode="S" horiz-adv-x="1087" d="M66 1032q0 93 33.5 167.5t91 120t129 69.5t151.5 24q170 0 311 -108v92h172v-420h-172v96q-57 83 -128.5 122.5t-166.5 39.5q-105 0 -169 -49t-64 -129q0 -72 47 -119q36 -36 118 -63t164 -43t174.5 -53.5t147.5 -92.5q56 -56 87.5 -135t31.5 -164q0 -177 -125.5 -293.5 t-314.5 -116.5q-192 0 -342 138v-115h-172v504h172v-123q134 -229 323 -229q106 0 176 66.5t70 166.5q0 64 -33.5 108.5t-87 66.5t-125 43t-141 38.5t-143 53t-123.5 85.5q-92 92 -92 252z" />
<glyph unicode="T" horiz-adv-x="1173" d="M23 862v529h1126v-529h-172v355h-287v-1043h182v-174h-573v174h182v1043h-286v-355h-172z" />
<glyph unicode="U" horiz-adv-x="1386" d="M27 1217v174h544v-174h-161v-805q0 -141 75 -204t203 -63q154 0 221.5 67.5t67.5 215.5v789h-162v174h545v-174h-174v-801q0 -103 -29.5 -182.5t-76 -127t-111.5 -77.5t-128.5 -41t-135.5 -11q-117 0 -206 23.5t-145 63t-91 97t-48.5 119.5t-13.5 138v799h-174z" />
<glyph unicode="V" horiz-adv-x="1449" d="M-4 1217v174h549v-174h-162l354 -934l346 934h-161v174h534v-174h-170l-459 -1231h-194l-465 1231h-172z" />
<glyph unicode="W" horiz-adv-x="2048" d="M0 1217v174h532v-174h-165l260 -910h4l250 910h-166v174h639v-174h-164l254 -910h4l256 910h-166v174h510v-174h-164l-346 -1231h-199l-311 1099h-4l-309 -1099h-193l-354 1231h-168z" />
<glyph unicode="X" horiz-adv-x="1343" d="M20 0v174h189l352 526l-352 517h-180v174h559v-174h-156l240 -353l243 353h-161v174h534v-174h-174l-342 -498l373 -545h180v-174h-571v174h161l-253 377l-254 -377h167v-174h-555z" />
<glyph unicode="Y" horiz-adv-x="1323" d="M-20 1217v174h571v-174h-174l305 -429l281 429h-175v174h555v-174h-184l-387 -584v-459h191v-174h-586v174h186v459l-413 584h-170z" />
<glyph unicode="Z" horiz-adv-x="1153" d="M51 0v174l746 1043h-541v-244h-172v418h979v-154l-760 -1063h610v268h172v-442h-1034z" />
<glyph unicode="[" horiz-adv-x="768" d="M215 -418v1811h494v-146h-301v-1519h301v-146h-494z" />
<glyph unicode="\" horiz-adv-x="897" d="M10 1391h166l711 -1420h-166z" />
<glyph unicode="]" horiz-adv-x="768" d="M59 -272h301v1519h-301v146h494v-1811h-494v146z" />
<glyph unicode="^" horiz-adv-x="960" d="M-14 674l432 717h131l426 -717h-176l-316 530l-321 -530h-176z" />
<glyph unicode="_" horiz-adv-x="1024" d="M-12 -154h1048v-102h-1048v102z" />
<glyph unicode="`" horiz-adv-x="681" d="M111 1413h276l141 -317h-129z" />
<glyph unicode="a" horiz-adv-x="1087" d="M90 291q0 132 101.5 222.5t250.5 90.5q65 0 136 -22t129 -60v127q0 96 -60 141.5t-155 45.5q-142 0 -207 -115l-183 49q123 225 418 225q102 0 178 -24t118.5 -66.5t62.5 -94t20 -112.5v-530h166v-168h-336v119q-91 -74 -161.5 -104.5t-149.5 -30.5q-138 0 -233 89 t-95 218zM272 291q0 -70 48.5 -115t125.5 -45q64 0 133 30.5t128 84.5v114q-126 97 -250 97q-80 0 -132.5 -47t-52.5 -119z" />
<glyph unicode="b" horiz-adv-x="1323" d="M51 0v168h172v1055h-168v168h359v-560q78 86 162 125t190 39q205 0 338 -141t133 -360q0 -221 -134.5 -365.5t-338.5 -144.5q-106 0 -200.5 44t-145.5 117h-4v-145h-363zM420 481q0 -142 86 -235.5t217 -93.5q134 0 221.5 98t87.5 248q0 84 -28.5 149t-75 101.5t-98 54.5 t-103.5 18q-135 0 -221 -95.5t-86 -244.5z" />
<glyph unicode="c" horiz-adv-x="1067" d="M72 492q0 103 37.5 196t101 160.5t151.5 107t185 39.5q161 0 272 -94v66h172v-365h-172q-15 102 -84 162q-66 57 -172 57q-129 0 -208 -90.5t-79 -236.5q0 -155 82 -252t213 -97q97 0 172.5 49.5t118.5 141.5l158 -74q-63 -142 -179.5 -216.5t-275.5 -74.5 q-121 0 -218 46.5t-155.5 122.5t-89 166.5t-30.5 185.5z" />
<glyph unicode="d" horiz-adv-x="1280" d="M88 479q0 220 137.5 368t341.5 148q194 0 340 -155v383h-184v168h377v-1223h176v-168h-369v143q-146 -159 -344 -159q-68 0 -134 18t-128 57t-109 95.5t-75.5 140.5t-28.5 184zM293 485q0 -149 85 -241t220 -92t222 97t87 245q0 146 -86.5 236.5t-224.5 90.5 q-129 0 -216 -96t-87 -240z" />
<glyph unicode="e" horiz-adv-x="1173" d="M74 483q0 150 75 269.5t190 181t243 61.5q101 0 193.5 -38t164.5 -108t115 -177t43 -236h-813q22 -141 109 -219t222 -78q95 0 178 41t136 117l168 -74q-78 -121 -204 -186.5t-282 -65.5q-235 0 -386.5 144t-151.5 368zM291 575h612q-23 116 -113 191.5t-204 75.5 t-193.5 -72.5t-101.5 -194.5z" />
<glyph unicode="f" d="M68 799v168h141v174q0 137 73.5 207.5t184.5 70.5q103 0 168 -58t82 -165l-168 -27q-9 95 -74 95q-35 0 -54.5 -27.5t-19.5 -77.5v-192h164v-168h-164v-631h187v-168h-516v168h137v631h-141z" />
<glyph unicode="g" horiz-adv-x="1280" d="M72 469q0 143 63 261t173 185.5t243 67.5q191 0 342 -154v138h364v-168h-174v-807q0 -100 -33.5 -179.5t-86 -128.5t-122.5 -82t-138.5 -46t-137.5 -13q-111 0 -198 29.5t-183 99.5l123 140q125 -101 275 -101q38 0 78 8t82.5 28t75.5 50t54 79t21 110v145h-4 q-57 -72 -152 -116t-194 -44q-204 0 -337.5 141.5t-133.5 356.5zM276 473q0 -147 85 -240.5t219 -93.5q135 0 225 95.5t90 238.5q0 141 -89 236.5t-222 95.5q-132 0 -220 -95t-88 -237z" />
<glyph unicode="h" horiz-adv-x="1173" d="M41 0v168h176v1055h-174v168h367v-535q90 73 166.5 106t154.5 33q123 0 194.5 -69.5t71.5 -223.5v-534h166v-168h-358v662q0 163 -119 163q-107 0 -276 -127v-530h165v-168h-534z" />
<glyph unicode="i" d="M49 0v168h154v631h-154v168h346v-799h154v-168h-500zM180 1296q0 47 34 81t81 34t81 -34t34 -81t-34 -80.5t-81 -33.5t-81 33.5t-34 80.5z" />
<glyph unicode="j" d="M-37 -252q52 -8 94 -8q97 0 133.5 46t36.5 153v860h-149v168h342v-961q0 -45 -1 -75t-4.5 -71t-10 -68.5t-19 -61t-30 -55.5t-43.5 -44.5t-59.5 -35.5t-78.5 -21t-100 -8q-62 0 -111 10v172zM203 1296q0 47 33.5 81t80.5 34t81 -34t34 -81t-34 -80.5t-81 -33.5 t-80.5 33.5t-33.5 80.5z" />
<glyph unicode="k" horiz-adv-x="1173" d="M47 0v168h176v1055h-174v168h367v-869l362 285v4h-162v156h537v-156h-149l-363 -301l342 -342h166v-168h-246l-487 487v-319h143v-168h-512z" />
<glyph unicode="l" d="M49 0v168h176v1055h-172v168h365v-1223h149v-168h-518z" />
<glyph unicode="m" horiz-adv-x="1771" d="M57 0v168h176v631h-161v168h354v-121q172 137 328 137q82 0 142 -39.5t91 -112.5q104 82 184.5 117t163.5 35q121 0 189.5 -70.5t68.5 -195.5v-549h166v-168h-358v674q0 70 -30.5 105.5t-86.5 35.5q-122 0 -274 -127v-520h166v-168h-359v670q0 71 -34 104t-85 33 q-102 0 -272 -119v-520h166v-168h-535z" />
<glyph unicode="n" horiz-adv-x="1173" d="M55 799v168h363v-117q96 70 174.5 101.5t155.5 31.5q110 0 181.5 -69.5t71.5 -204.5v-541h166v-168h-358v633q0 92 -27 134t-86 42q-123 0 -278 -123v-518h166v-168h-525v168h166v631h-170z" />
<glyph unicode="o" horiz-adv-x="1173" d="M78 483q0 220 145 366t365 146q218 0 363 -146t145 -366t-146 -366t-364 -146t-363 146t-145 366zM283 483q0 -141 87 -234t216 -93q131 0 218 93t87 234q0 140 -87.5 234t-217.5 94q-129 0 -216 -94t-87 -234z" />
<glyph unicode="p" horiz-adv-x="1280" d="M14 -266h176v1065h-161v168h354v-152h4q130 168 336 168q207 0 340 -141.5t133 -362.5q0 -216 -137 -362t-338 -146q-92 0 -180.5 38.5t-157.5 109.5v-385h186v-168h-555v168zM379 471q0 -141 86 -233.5t219 -92.5q140 0 226.5 94.5t86.5 247.5q0 141 -86.5 234.5 t-216.5 93.5q-135 0 -225 -98t-90 -246z" />
<glyph unicode="q" horiz-adv-x="1259" d="M74 481q0 220 133 361t340 141q206 0 336 -168h4v152h354v-168h-162v-1065h176v-168h-555v168h187v389q-67 -73 -155.5 -112.5t-184.5 -39.5q-201 0 -337 146t-136 364zM272 485q0 -152 86 -246t226 -94q133 0 220 92.5t87 233.5q0 148 -90.5 246t-225.5 98 q-132 0 -217.5 -93.5t-85.5 -236.5z" />
<glyph unicode="r" horiz-adv-x="854" d="M45 799v168h346v-217h4q44 116 126 174.5t179 58.5h125v-192h-102q-160 0 -225.5 -86t-65.5 -261v-276h209v-168h-592v168h191v631h-195z" />
<glyph unicode="s" horiz-adv-x="937" d="M84 0v332h170v-33q12 -72 74 -114t157 -42q91 0 145 33t54 88q0 50 -36 76.5t-96.5 37t-127 20t-140.5 38t-124 78.5q-76 76 -76 184q0 124 96 204.5t244 80.5q136 0 235 -55v39h168v-320h-168v60q-79 118 -225 118q-77 0 -123.5 -32t-46.5 -86q0 -45 39 -70t103 -35 t133 -19.5t141.5 -34.5t116.5 -69q82 -82 82 -200q0 -132 -102.5 -213.5t-268.5 -81.5q-151 0 -254 69v-53h-170z" />
<glyph unicode="t" horiz-adv-x="618" d="M61 799v168h125v149l193 174v-323h178v-168h-178v-559q0 -79 77 -79q40 0 101 21v-172q-84 -26 -141 -26q-230 0 -230 229v586h-125z" />
<glyph unicode="u" horiz-adv-x="1153" d="M53 799v168h330v-674q0 -141 115 -141q61 0 137 33t139 89v525h-166v168h359v-799h166v-168h-359v111q-165 -127 -315 -127q-269 0 -269 299v516h-137z" />
<glyph unicode="v" horiz-adv-x="1110" d="M-4 799v168h487v-168h-127l209 -549l209 549h-135v168h475v-168h-149l-312 -815h-170l-317 815h-170z" />
<glyph unicode="w" horiz-adv-x="1579" d="M-2 799v168h408v-168h-125l182 -584h4l182 584h-106v168h469v-168h-105l183 -584h4l184 584h-135v168h436v-168h-137l-260 -815h-178l-220 700h-4l-225 -700h-180l-258 815h-119z" />
<glyph unicode="x" horiz-adv-x="1130" d="M33 0v168h143l293 330l-279 301h-131v168h455v-168h-121l174 -187l168 187h-98v168h457v-168h-160l-264 -301l303 -330h125v-168h-463v168h137l-205 217l-188 -217h125v-168h-471z" />
<glyph unicode="y" horiz-adv-x="1153" d="M16 799v168h480v-168h-115l209 -535l205 535h-129v168h469v-168h-144l-479 -1233h-324v168h191l117 284l-318 781h-162z" />
<glyph unicode="z" horiz-adv-x="917" d="M33 0v158l602 653h-393v-186h-162v342h786v-168l-610 -641h440v198h170v-356h-833z" />
<glyph unicode="{" horiz-adv-x="681" d="M57 401v156q52 0 90.5 16t60.5 42t35 67t17 82t4 96v174q0 83 13 144t44 111t89 76t143 26h84v-148h-31q-107 0 -139.5 -36.5t-32.5 -159.5v-138q0 -134 -19 -213t-63.5 -129t-128.5 -88q84 -38 128.5 -88t63.5 -129t19 -213v-139q0 -123 32.5 -160t139.5 -37h31v-147 h-84q-85 0 -143 25.5t-89 75.5t-44 111t-13 144v176q0 55 -4 96t-17 82t-35 67t-60.5 42t-90.5 16z" />
<glyph unicode="|" horiz-adv-x="1079" d="M461 -434v1825h157v-1825h-157z" />
<glyph unicode="}" horiz-adv-x="681" d="M45 -287h31q108 0 141 37t33 160v137q0 197 43 286t166 144q-123 55 -166 144t-43 286v140q0 122 -33 159t-141 37h-31v148h84q68 0 119 -17.5t83 -48t51 -77t26.5 -97.5t7.5 -117v-176q0 -69 8 -118.5t29 -94t64 -67.5t108 -23v-156q-65 0 -108 -23t-64 -67.5t-29 -94 t-8 -118.5v-174q0 -66 -7.5 -117t-26.5 -97.5t-51 -76.5t-83 -47.5t-119 -17.5h-84v147z" />
<glyph unicode="~" horiz-adv-x="1193" d="M84 557v205q51 58 122.5 89.5t153.5 31.5q112 0 267 -68q6 -3 38.5 -17t41.5 -17.5t34.5 -13t38.5 -12.5t32.5 -6.5t35.5 -3.5q63 0 132.5 37t129.5 103v-211q-68 -62 -133 -88q-67 -27 -148 -27q-45 0 -93.5 11.5t-79 23.5t-81.5 35q-50 22 -79 34t-71.5 22.5 t-80.5 10.5q-68 0 -124.5 -30t-135.5 -109z" />
<glyph unicode="&#xa1;" d="M176 721v246h246v-246h-246zM199 0l49 590h102l49 -590v-424h-200v424z" />
<glyph unicode="&#xa2;" horiz-adv-x="1067" d="M82 492q0 83 23.5 159.5t65 135.5t97.5 106t121 71t135.5 30.5t141.5 -15.5l155 442h111l-170 -475q29 -14 67 -45v66h172v-365h-172q-13 70 -40.5 114t-83.5 72l-224 -626q118 -39 225.5 8t165.5 166l158 -74q-35 -77 -86.5 -135t-111 -92t-128.5 -50t-139.5 -14 t-142.5 21l-154 -434h-108l172 473q-116 71 -183 190t-67 271zM287 492q0 -96 24 -150.5t90 -120.5l207 596q-128 23 -224.5 -68t-96.5 -257z" />
<glyph unicode="&#xa3;" horiz-adv-x="1110" d="M66 162q0 84 60 140t146 56q75 0 148 -39q0 150 -47 279h-307v162h247q-30 57 -57 157.5t-27 161.5q0 159 103 246.5t270 87.5q182 0 283.5 -105t91.5 -286h-193q5 23 6 49.5t-7 59.5t-25.5 59t-54.5 43.5t-89 17.5q-88 0 -137 -39.5t-49 -121.5q0 -20 3 -42.5 t10.5 -50.5t13 -47.5t17.5 -53.5t17 -47t19 -49t16 -40h248v-162h-201q18 -76 12 -169.5t-30 -168.5q14 -7 53 -26t60 -28.5t54 -18.5t60 -9q77 0 119.5 46t50.5 128h121q0 -178 -81 -276.5t-212 -98.5q-44 0 -81 7.5t-78.5 29.5t-62.5 35.5t-75 50.5q-101 -123 -219 -123 q-84 0 -140 51.5t-56 133.5zM166 162q0 -34 23.5 -55t60.5 -21q38 0 67.5 20t65.5 68q-50 36 -80 50t-57 14q-34 0 -57 -22t-23 -54z" />
<glyph unicode="&#xa5;" horiz-adv-x="1323" d="M-25 1217v174h572v-174h-174l112 -158h371l102 158h-174v174h555v-174h-184l-104 -158h268v-117h-346l-205 -309h551v-117h-551v-342h190v-174h-585v174h186v342h-555v117h555l-217 309h-338v117h254l-113 158h-170zM569 942l109 -154l102 154h-211z" />
<glyph unicode="&#xa8;" horiz-adv-x="681" d="M45 1255q0 47 34 81t81 34t80.5 -34t33.5 -81t-33.5 -80.5t-80.5 -33.5t-81 33.5t-34 80.5zM408 1255q0 47 33.5 81t80.5 34t81 -34t34 -81t-34 -80.5t-81 -33.5t-80.5 33.5t-33.5 80.5z" />
<glyph unicode="&#xa9;" horiz-adv-x="1515" d="M2 737q0 154 59.5 293.5t160.5 240.5t240.5 160.5t293.5 59.5t294 -59.5t241 -160.5t160.5 -240.5t59.5 -293.5q0 -206 -101 -379.5t-274.5 -274.5t-379.5 -101q-154 0 -293.5 59.5t-240.5 160.5t-160.5 241t-59.5 294zM127 737q0 -128 49.5 -245t134 -201.5t201 -134.5 t244.5 -50q171 0 316 84.5t229.5 230t84.5 316.5t-84.5 316t-229.5 229t-316 84q-128 0 -244.5 -49.5t-201 -134t-134 -201t-49.5 -244.5zM362 735q0 197 108.5 310.5t295.5 113.5q131 0 219.5 -60.5t122.5 -174.5l-119 -29q-29 74 -87.5 114t-139.5 40q-120 0 -191 -86.5 t-71 -231.5q0 -144 67.5 -226.5t184.5 -82.5q92 0 158 51.5t89 140.5l123 -36q-31 -128 -128 -201.5t-236 -73.5q-180 0 -288 118t-108 314z" />
<glyph unicode="&#xab;" horiz-adv-x="980" d="M33 485l303 486h194l-292 -486l292 -485h-194zM461 485l303 486h194l-292 -486l292 -485h-194z" />
<glyph unicode="&#xad;" horiz-adv-x="724" d="M63 395v168h601v-168h-601z" />
<glyph unicode="&#xae;" horiz-adv-x="1515" d="M2 737q0 154 59.5 293.5t160.5 240.5t240.5 160.5t293.5 59.5t294 -59.5t241 -160.5t160.5 -240.5t59.5 -293.5q0 -206 -101 -379.5t-274.5 -274.5t-379.5 -101q-154 0 -293.5 59.5t-240.5 160.5t-160.5 241t-59.5 294zM127 737q0 -128 49.5 -245t134 -201.5t201 -134.5 t244.5 -50q171 0 316 84.5t229.5 230t84.5 316.5t-84.5 316t-229.5 229t-316 84q-128 0 -244.5 -49.5t-201 -134t-134 -201t-49.5 -244.5zM426 319v811h354q70 0 124.5 -19.5t86 -51.5t47 -69.5t15.5 -78.5q0 -94 -65.5 -157.5t-166.5 -69.5v-4q77 -28 152 -145l135 -216 h-160l-71 127q-76 136 -121.5 177t-120.5 41h-78v-345h-131zM557 776h186q80 0 125 32t45 91q0 55 -38.5 88t-116.5 33h-201v-244z" />
<glyph unicode="&#xb4;" horiz-adv-x="681" d="M156 1096l141 317h276l-288 -317h-129z" />
<glyph unicode="&#xb8;" horiz-adv-x="681" d="M221 -311q76 -2 111 12.5t35 54.5q0 55 -80 58l32 200h95l-13 -90q56 -14 86.5 -55t30.5 -102q0 -79 -56 -130t-169 -51h-72v103z" />
<glyph unicode="&#xbb;" horiz-adv-x="980" d="M23 0l292 485l-292 486h194l303 -486l-303 -485h-194zM451 0l292 485l-292 486h194l303 -486l-303 -485h-194z" />
<glyph unicode="&#xbf;" horiz-adv-x="960" d="M68 -53q0 72 23.5 138.5t69 121.5t122 86.5t172.5 28.5l24 270h103l24 -434l-14 -6q-87 15 -159 -0.5t-120.5 -70.5t-48.5 -144q0 -101 60 -161.5t161 -60.5q117 0 177 72.5t51 212.5h188q9 -100 -14 -180t-65 -128.5t-100.5 -80.5t-115 -44.5t-114.5 -12.5 q-196 0 -310 105.5t-114 287.5zM410 721v246h245v-246h-245z" />
<glyph unicode="&#xc1;" horiz-adv-x="1429" d="M-16 0v174h168l380 1061h-163v156h710v-156h-164l375 -1061h156v-174h-545v174h172l-102 315h-500l-109 -315h170v-174h-548zM522 651h396l-185 584h-18zM530 1520l142 317h276l-289 -317h-129z" />
<glyph unicode="&#xc9;" horiz-adv-x="1280" d="M57 0v174h181v1043h-181v174h1153v-418h-172v244h-592v-414h517v-174h-517v-455h592v254h172v-428h-1153zM455 1520l141 317h276l-288 -317h-129z" />
<glyph unicode="&#xcd;" horiz-adv-x="641" d="M63 0v174h152v1043h-152v174h512v-174h-151v-1043h151v-174h-512zM135 1520l141 317h277l-289 -317h-129z" />
<glyph unicode="&#xd1;" horiz-adv-x="1472" d="M8 0v174h199v1043h-199v174h475l602 -1082h5v908h-195v174h571v-174h-204v-1231h-220l-659 1188h-4v-1000h201v-174h-572zM406 1552q0 136 51.5 202.5t130.5 66.5q37 0 83 -19t81.5 -42.5t73 -42.5t59.5 -19q68 0 71 117h111q0 -128 -47 -202.5t-135 -74.5 q-42 0 -89.5 19.5t-82.5 43t-73 43t-62 19.5q-33 0 -45.5 -27t-12.5 -84h-114z" />
<glyph unicode="&#xd3;" horiz-adv-x="1642" d="M102 694q0 155 54 289t148.5 228.5t228 148t288.5 53.5q206 0 370.5 -92t256.5 -256.5t92 -370.5t-92 -370t-256.5 -255.5t-370.5 -91.5q-155 0 -289 53.5t-228.5 147.5t-148 227.5t-53.5 288.5zM332 694q0 -110 38 -209t103 -169.5t155.5 -112t192.5 -41.5 q136 0 248.5 70t177 192.5t64.5 269.5q0 148 -64.5 271t-177 193.5t-248.5 70.5t-248.5 -70.5t-176.5 -193.5t-64 -271zM637 1520l141 317h277l-289 -317h-129z" />
<glyph unicode="&#xda;" horiz-adv-x="1386" d="M27 1217v174h544v-174h-161v-805q0 -141 75 -204t203 -63q154 0 221.5 67.5t67.5 215.5v789h-162v174h545v-174h-174v-801q0 -103 -29.5 -182.5t-76 -127t-111.5 -77.5t-128.5 -41t-135.5 -11q-117 0 -206 23.5t-145 63t-91 97t-48.5 119.5t-13.5 138v799h-174zM508 1520 l141 317h277l-289 -317h-129z" />
<glyph unicode="&#xdc;" horiz-adv-x="1386" d="M27 1217v174h544v-174h-161v-805q0 -141 75 -204t203 -63q154 0 221.5 67.5t67.5 215.5v789h-162v174h545v-174h-174v-801q0 -103 -29.5 -182.5t-76 -127t-111.5 -77.5t-128.5 -41t-135.5 -11q-117 0 -206 23.5t-145 63t-91 97t-48.5 119.5t-13.5 138v799h-174zM397 1679 q0 47 34 81t81 34t81 -34t34 -81t-34 -80.5t-81 -33.5t-81 33.5t-34 80.5zM760 1679q0 47 33.5 81t80.5 34t81 -34t34 -81t-34 -80.5t-81 -33.5t-80.5 33.5t-33.5 80.5z" />
<glyph unicode="&#xe1;" horiz-adv-x="1087" d="M90 291q0 132 101.5 222.5t250.5 90.5q65 0 136 -22t129 -60v127q0 96 -60 141.5t-155 45.5q-142 0 -207 -115l-183 49q123 225 418 225q102 0 178 -24t118.5 -66.5t62.5 -94t20 -112.5v-530h166v-168h-336v119q-91 -74 -161.5 -104.5t-149.5 -30.5q-138 0 -233 89 t-95 218zM272 291q0 -70 48.5 -115t125.5 -45q64 0 133 30.5t128 84.5v114q-126 97 -250 97q-80 0 -132.5 -47t-52.5 -119zM358 1096l142 317h276l-289 -317h-129z" />
<glyph unicode="&#xe9;" horiz-adv-x="1173" d="M74 483q0 150 75 269.5t190 181t243 61.5q101 0 193.5 -38t164.5 -108t115 -177t43 -236h-813q22 -141 109 -219t222 -78q95 0 178 41t136 117l168 -74q-78 -121 -204 -186.5t-282 -65.5q-235 0 -386.5 144t-151.5 368zM291 575h612q-23 116 -113 191.5t-204 75.5 t-193.5 -72.5t-101.5 -194.5zM401 1096l142 317h276l-289 -317h-129z" />
<glyph unicode="&#xed;" d="M49 0v168h154v631h-154v168h346v-799h154v-168h-500zM115 1096l141 317h276l-288 -317h-129z" />
<glyph unicode="&#xf1;" horiz-adv-x="1173" d="M55 799v168h363v-117q96 70 174.5 101.5t155.5 31.5q110 0 181.5 -69.5t71.5 -204.5v-541h166v-168h-358v633q0 92 -27 134t-86 42q-123 0 -278 -123v-518h166v-168h-525v168h166v631h-170zM256 1128q0 136 51.5 202.5t130.5 66.5q37 0 83 -19t81.5 -42.5t73 -42.5 t59.5 -19q69 0 72 117h111q0 -128 -47.5 -202.5t-135.5 -74.5q-42 0 -89.5 19.5t-82.5 43t-73 43t-62 19.5q-33 0 -45 -27t-12 -84h-115z" />
<glyph unicode="&#xf3;" horiz-adv-x="1173" d="M78 483q0 220 145 366t365 146q218 0 363 -146t145 -366t-146 -366t-364 -146t-363 146t-145 366zM283 483q0 -141 87 -234t216 -93q131 0 218 93t87 234q0 140 -87.5 234t-217.5 94q-129 0 -216 -94t-87 -234zM401 1096l142 317h276l-289 -317h-129z" />
<glyph unicode="&#xfa;" horiz-adv-x="1153" d="M53 799v168h330v-674q0 -141 115 -141q61 0 137 33t139 89v525h-166v168h359v-799h166v-168h-359v111q-165 -127 -315 -127q-269 0 -269 299v516h-137zM391 1096l141 317h277l-289 -317h-129z" />
<glyph unicode="&#xfc;" horiz-adv-x="1153" d="M53 799v168h330v-674q0 -141 115 -141q61 0 137 33t139 89v525h-166v168h359v-799h166v-168h-359v111q-165 -127 -315 -127q-269 0 -269 299v516h-137zM281 1255q0 47 33.5 81t80.5 34t81 -34t34 -81t-34 -80.5t-81 -33.5t-80.5 33.5t-33.5 80.5zM643 1255q0 47 34 81 t81 34t80.5 -34t33.5 -81t-33.5 -80.5t-80.5 -33.5t-81 33.5t-34 80.5z" />
<glyph unicode="&#x2c6;" horiz-adv-x="681" d="M37 1098l168 313h266l174 -313h-141l-166 176l-166 -176h-135z" />
<glyph unicode="&#x2da;" horiz-adv-x="681" d="M141 1255q0 83 58 141t141 58t142 -58t59 -141t-59 -141.5t-142 -58.5t-141 58.5t-58 141.5zM219 1255q0 -51 35 -85.5t86 -34.5t86 34.5t35 85.5t-35 86t-86 35t-86 -35t-35 -86z" />
<glyph unicode="&#x2dc;" horiz-adv-x="681" d="M10 1128q0 136 52 202.5t131 66.5q37 0 83 -19t81.5 -42.5t72.5 -42.5t59 -19q69 0 72 117h111q0 -128 -47.5 -202.5t-135.5 -74.5q-42 0 -89.5 19.5t-82.5 43t-73 43t-62 19.5q-33 0 -45 -27t-12 -84h-115z" />
<glyph unicode="&#x2000;" horiz-adv-x="918" />
<glyph unicode="&#x2001;" horiz-adv-x="1837" />
<glyph unicode="&#x2002;" horiz-adv-x="918" />
<glyph unicode="&#x2003;" horiz-adv-x="1837" />
<glyph unicode="&#x2004;" horiz-adv-x="612" />
<glyph unicode="&#x2005;" horiz-adv-x="459" />
<glyph unicode="&#x2006;" horiz-adv-x="306" />
<glyph unicode="&#x2007;" horiz-adv-x="306" />
<glyph unicode="&#x2008;" horiz-adv-x="229" />
<glyph unicode="&#x2009;" horiz-adv-x="367" />
<glyph unicode="&#x200a;" horiz-adv-x="102" />
<glyph unicode="&#x2010;" horiz-adv-x="724" d="M63 395v168h601v-168h-601z" />
<glyph unicode="&#x2011;" horiz-adv-x="724" d="M63 395v168h601v-168h-601z" />
<glyph unicode="&#x2012;" horiz-adv-x="724" d="M63 395v168h601v-168h-601z" />
<glyph unicode="&#x2013;" horiz-adv-x="1024" d="M-12 424v174h1048v-174h-1048z" />
<glyph unicode="&#x2014;" horiz-adv-x="2048" d="M-12 424v174h2072v-174h-2072z" />
<glyph unicode="&#x2018;" d="M176 868v246q0 138 57 207t189 70v-103q-67 -15 -95 -53t-28 -121h123v-246h-246z" />
<glyph unicode="&#x2019;" d="M176 868v103q67 15 95 53t28 121h-123v246h246v-246q0 -138 -57 -207t-189 -70z" />
<glyph unicode="&#x201a;" d="M176 0v246h246v-246q0 -138 -57 -206.5t-189 -69.5v102q67 15 95 53t28 121h-123z" />
<glyph unicode="&#x201c;" horiz-adv-x="1067" d="M164 868v246q0 138 57 207t189 70v-103q-67 -15 -95 -53t-28 -121h123v-246h-246zM659 868v246q0 138 57 207t189 70v-103q-67 -15 -95 -53t-28 -121h123v-246h-246z" />
<glyph unicode="&#x201d;" horiz-adv-x="1067" d="M162 868v103q67 15 95 53t28 121h-123v246h246v-246q0 -138 -57 -207t-189 -70zM657 868v103q67 15 95 53t28 121h-123v246h246v-246q0 -138 -57 -207t-189 -70z" />
<glyph unicode="&#x201e;" horiz-adv-x="1067" d="M162 0v246h246v-246q0 -138 -57 -206.5t-189 -69.5v102q67 15 95 53t28 121h-123zM657 0v246h246v-246q0 -138 -57 -206.5t-189 -69.5v102q67 15 95 53t28 121h-123z" />
<glyph unicode="&#x2026;" horiz-adv-x="2048" d="M219 0v246h246v-246h-246zM901 0v246h246v-246h-246zM1583 0v246h246v-246h-246z" />
<glyph unicode="&#x202f;" horiz-adv-x="367" />
<glyph unicode="&#x2039;" d="M55 485l303 486h195l-293 -486l293 -485h-195z" />
<glyph unicode="&#x203a;" d="M45 0l293 485l-293 486h195l303 -486l-303 -485h-195z" />
<glyph unicode="&#x205f;" horiz-adv-x="459" />
<glyph unicode="&#x2122;" horiz-adv-x="2048" d="M227 1270v121h664v-121h-264v-695h-135v695h-265zM985 575v816h201l203 -652h4l196 652h201v-816h-125v685h-4l-209 -685h-123l-215 685h-4v-685h-125z" />
<glyph unicode="&#xe000;" horiz-adv-x="962" d="M0 0v963h963v-963h-963z" />
</font>
</defs>
</svg>
